iNFO (DOC)

Document Sample
iNFO (DOC) Powered By Docstoc
					General
Unique ID                        :
217301199330925356662903710419670157820
(0xA37AB04CF4F66770B46F511EB05A49FC)
Format                           : Matroska
Format version                   : Version 2
File size                        : 2.54 GiB
Duration                         : 1h 41mn
Overall bit rate                 : 3 566 Kbps
Encoded date                     : UTC 2011-11-24 14:59:31
Writing application              : mkvmerge v5.0.1 ('Es ist Sommer')
built on Oct 9 2011 11:55:43
Writing library                  : libebml v1.2.2 + libmatroska v1.3.0

Video
ID                               :   1
Format                           :   AVC
Format/Info                      :   Advanced Video Codec
Format profile                   :   High@L3.2
Format settings, CABAC           :   Yes
Format settings, ReFrames        :   7 frames
Muxing mode                      :   Header stripping
Codec ID                         :   V_MPEG4/ISO/AVC
Duration                         :   1h 41mn
Bit rate                         :   2 799 Kbps
Width                            :   1 280 pixels
Height                           :   528 pixels
Display aspect ratio             :   2.40:1
Frame rate                       :   23.976 fps
Color space                      :   YUV
Chroma subsampling               :   4:2:0
Bit depth                        :   8 bits
Scan type                        :   Progressive
Bits/(Pixel*Frame)               :   0.173
Stream size                      :   1.94 GiB (76%)
Writing library                  :   x264 core 116 r2074 2641b9e

Audio #1
ID                               :   2
Format                           :   AC-3
Format/Info                      :   Audio Coding 3
Mode extension                   :   CM (complete main)
Muxing mode                      :   Header stripping
Codec ID                         :   A_AC3
Duration                         :   1h 41mn
Bit rate mode                    :   Constant
Bit rate                         :   448 Kbps
Channel(s)                       :   6 channels
Channel positions                :   Front: L C R, Side: L R, LFE
Sampling rate                    :   48.0 KHz
Bit depth                        :   16 bits
Compression mode                 :   Lossy
Stream size                      :   326 MiB (13%)
Title                            :   English 5.1
Language            : English
Default             : Yes
Forced              : No

Audio #2
ID                  :   3
Format              :   AC-3
Format/Info         :   Audio Coding 3
Mode extension      :   CM (complete main)
Muxing mode         :   Header stripping
Codec ID            :   A_AC3
Duration            :   1h 41mn
Bit rate mode       :   Constant
Bit rate            :   320 Kbps
Channel(s)          :   2 channels
Channel positions   :   Front: L R
Sampling rate       :   48.0 KHz
Bit depth           :   16 bits
Compression mode    :   Lossy
Stream size         :   233 MiB (9%)
Title               :   English 2.0
Language            :   English
Default             :   No
Forced              :   No

Text #1
ID                  :   4
Format              :   UTF-8
Codec ID            :   S_TEXT/UTF8
Codec ID/Info       :   UTF-8 Plain Text
Title               :   English cc
Language            :   English
Default             :   No
Forced              :   No

Text #2
ID                  :   5
Format              :   UTF-8
Codec ID            :   S_TEXT/UTF8
Codec ID/Info       :   UTF-8 Plain Text
Title               :   Portuguese
Language            :   Portuguese
Default             :   No
Forced              :   No

Text #3
ID                  :   6
Format              :   UTF-8
Codec ID            :   S_TEXT/UTF8
Codec ID/Info       :   UTF-8 Plain Text
Title               :   French
Language            :   French
Default             :   No
Forced              :   No
Text #4
ID              :   7
Format          :   UTF-8
Codec ID        :   S_TEXT/UTF8
Codec ID/Info   :   UTF-8 Plain Text
Title           :   Spanish
Language        :   Spanish
Default         :   No
Forced          :   No

Text #5
ID              :   8
Format          :   UTF-8
Codec ID        :   S_TEXT/UTF8
Codec ID/Info   :   UTF-8 Plain Text
Title           :   Dutch
Language        :   Dutch
Default         :   No
Forced          :   No

Text #6
ID              :   9
Format          :   UTF-8
Codec ID        :   S_TEXT/UTF8
Codec ID/Info   :   UTF-8 Plain Text
Title           :   Russian
Language        :   Russian
Default         :   No
Forced          :   No

Menu
00:00:00.000    :   en:00:00:00.000
00:09:00.081    :   en:00:09:00.081
00:17:02.813    :   en:00:17:02.813
00:24:20.542    :   en:00:24:20.542
00:34:00.413    :   en:00:34:00.413
00:44:21.993    :   en:00:44:21.993
00:54:58.545    :   en:00:54:58.545
01:04:56.267    :   en:01:04:56.267
01:13:42.918    :   en:01:13:42.918
01:23:35.302    :   en:01:23:35.302
01:33:01.576    :   en:01:33:01.576
01:37:07.113    :   en:01:37:07.113

				
DOCUMENT INFO
Shared By:
Categories:
Tags:
Stats:
views:5
posted:5/12/2012
language:Latin
pages:3